<?xml version="1.0" standalone="no"?>
<!DOCTYPE svg PUBLIC "-//W3C//DTD SVG 1.1//EN" "http://www.w3.org/Graphics/SVG/1.1/DTD/svg11.dtd">
<svg xmlns="http://www.w3.org/2000/svg">
<metadata>Generated by Fontastic.me</metadata>
<defs>
<font id="ewd-details" horiz-adv-x="512">
<font-face font-family="ewd-details" units-per-em="512" ascent="480" descent="-32"/>
<missing-glyph horiz-adv-x="512" />

<glyph glyph-name="ewd-details-icon-01" unicode="&#97;" d="M140 365c50-50 100-100 150-150 22-22 59-22 82 0 22 22 22 60 0 82-50 50-100 99-150 149-22 23-59 23-82 0-22-22-22-59 0-81 50-50 100-100 150-150 22-22 59-22 82 0 22 22 22 60 0 82-50 50-100 99-150 149-22 23-59 23-82 0-22-22-22-59 0-81z m82-299c50 50 100 99 150 149 22 22 22 60 0 82-23 22-60 22-82 0-50-50-100-100-150-150-22-22-22-59 0-81 23-23 60-23 82 0 50 50 100 99 150 149 22 22 22 60 0 82-23 22-60 22-82 0-50-50-100-100-150-150-22-22-22-59 0-81 23-23 60-23 82 0z"/>
<glyph glyph-name="ewd-details-icon-02" unicode="&#98;" d="M171 218c57 0 113 0 170 0-9 21-18 43-27 65-27-27-54-53-81-80-15-15-15-40 0-55 15-14 40-14 54 0 27 27 54 54 81 81 15 15 15 39 0 54-27 27-54 54-81 81-14 14-39 14-54 0-15-15-15-40 0-55 27-27 54-53 81-80 0 18 0 36 0 54-27-27-54-53-81-80-15-15-15-40 0-55 15-14 40-14 54 0 27 27 54 54 81 81 24 24 6 65-27 65-57 0-113 0-170 0-49 0-49-76 0-76z"/>
<glyph glyph-name="ewd-details-icon-03" unicode="&#99;" d="M256 483l225-227-225-226-225 0 0-1 225 227-225 226 225 0"/>
<glyph glyph-name="ewd-details-icon-04" unicode="&#100;" d="M79 32l180 229-190 221 374-217 0-2-364-233"/>
<glyph glyph-name="ewd-details-icon-05" unicode="&#101;" d="M157 142l0 228 198-114z"/>
<glyph glyph-name="ewd-details-icon-06" unicode="&#102;" d="M426 256c0-14-11-25-24-25-14 0-25 11-25 25 0 14 11 25 25 25 13 0 24-11 24-25z m-49 49c0-13-11-24-25-24-13 0-24 11-24 24 0 14 11 25 24 25 14 0 25-11 25-25z m-51 50c0-14-11-25-25-25-13 0-24 11-24 25 0 13 11 24 24 24 14 0 25-11 25-24z m51-148c0-14-11-25-25-25-13 0-24 11-24 25 0 13 11 24 24 24 14 0 25-11 25-24z m-51-50c0-13-11-24-25-24-13 0-24 11-24 24 0 14 11 25 24 25 14 0 25-11 25-25z m2 99c0-14-11-25-25-25-14 0-25 11-25 25 0 14 11 25 25 25 14 0 25-11 25-25z m-129 0c0-14-11-25-24-25-14 0-25 11-25 25 0 14 11 25 25 25 13 0 24-11 24-25z m64 0c0-14-11-25-24-25-14 0-25 11-25 25 0 14 11 25 25 25 13 0 24-11 24-25z m-128 0c0-14-11-25-25-25-13 0-24 11-24 25 0 14 11 25 24 25 14 0 25-11 25-25z"/>
<glyph glyph-name="ewd-details-icon-07" unicode="&#103;" d="M256 506c-138 0-250-112-250-250 0-138 112-250 250-250 138 0 250 112 250 250 0 138-112 250-250 250z m108-173c15 0 27-13 27-28 0-15-12-27-27-27-15 0-27 12-27 27 0 15 12 28 27 28z m-57 54c16 0 28-12 28-27 0-15-12-27-28-27-15 0-27 12-27 27 0 15 12 27 27 27z m30-136c0-15-13-28-28-28-15 0-27 12-27 28 0 15 12 27 27 27 15 0 28-12 28-27z m-241-28c-15 0-28 12-28 28 0 15 13 27 28 27 15 0 27-12 27-27 0-16-12-28-27-28z m71 0c-15 0-27 12-27 28 0 15 12 27 27 27 15 0 27-12 27-27 0-16-12-28-27-28z m71 0c-15 0-27 12-27 28 0 15 12 27 27 27 15 0 28-12 28-27 0-16-13-28-28-28z m69-109c-15 0-27 12-27 27 0 15 12 28 27 28 16 0 28-13 28-28 0-15-12-27-28-27z m57 55c-15 0-27 12-27 27 0 15 12 27 27 27 15 0 27-12 27-27 0-15-12-27-27-27z m55 54c-15 0-28 12-28 28 0 15 13 27 28 27 15 0 27-12 27-27 0-16-12-28-27-28z"/>
<glyph glyph-name="ewd-details-icon-08" unicode="&#104;" d="M256 512c-141 0-256-115-256-256 0-141 115-256 256-256 141 0 256 115 256 256 0 141-115 256-256 256z m-54-114c9 10 25 10 35 0 9-9 9-25 0-35-10-9-26-9-35 0-10 10-10 26 0 35z m35-284c-10-10-26-10-35 0-10 9-10 25 0 35 9 9 25 9 35 0 9-10 9-26 0-35z m62 62c-10-9-25-9-35 0-9 10-9 25 0 35 10 10 25 10 35 0 10-10 10-25 0-35z m0 125c-10-10-25-10-35 0-9 10-9 25 0 35 10 9 25 9 35 0 10-10 10-25 0-35z m62-62c-4-5-11-8-17-8-6 0-13 3-17 8-8 7-9 17-6 26 1 3 3 6 6 8 9 10 25 10 34 0 3-2 5-5 6-8 3-9 2-19-6-26z"/>
<glyph glyph-name="ewd-details-icon-09" unicode="&#105;" d="M256 512c-141 0-256-115-256-256 0-141 115-256 256-256 141 0 256 115 256 256 0 141-115 256-256 256z m0-496c-132 0-240 108-240 240 0 132 108 240 240 240 132 0 240-108 240-240 0-132-108-240-240-240z m74 247l-107 107c-3 3-7 3-10 0-3-3-3-7 0-10l101-101-107-107c-3-3-3-7 0-10 3-3 8-3 11 0l107 107c1 0 1 1 1 1 2 1 3 1 4 3 3 3 3 7 0 10z"/>
<glyph glyph-name="ewd-details-icon-10" unicode="&#106;" d="M347 303l78 55-155 111 0-60c-101 0-183-82-183-183 0-101 82-183 183-183 7 0 15 1 22 2-64 9-114 64-114 131 0 59 39 109 92 126l0-55z"/>
<glyph glyph-name="ewd-details-icon-11" unicode="&#107;" d="M59 198l101 58-101 58z m147 0l100 58-100 58z m146 116l0-116 101 58z"/>
<glyph glyph-name="ewd-details-icon-12" unicode="&#108;" d="M419 281l0 49-49 0 0 50-49 0 0 49-50 0 0 49-49 0 0-149-179 0 0-147 179 0 0-148 49 0 0 49 50 0 0 49 49 0 0 50 49 0 0 49 50 0 0 50z"/>
<glyph glyph-name="ewd-details-icon-13" unicode="&#109;" d="M256 512c-141 0-256-115-256-256 0-141 115-256 256-256 141 0 256 115 256 256 0 141-115 256-256 256z m-121-284c-15 0-28 12-28 28 0 16 13 28 28 28 16 0 29-12 29-28 0-16-13-28-29-28z m121 0c-16 0-28 12-28 28 0 16 12 28 28 28 16 0 28-12 28-28 0-16-12-28-28-28z m121 0c-16 0-29 12-29 28 0 16 13 28 29 28 15 0 28-12 28-28 0-16-13-28-28-28z"/>
<glyph glyph-name="ewd-details-icon-14" unicode="&#110;" d="M256 512c-141 0-256-115-256-256 0-141 115-256 256-256 141 0 256 115 256 256 0 141-115 256-256 256z m0-496c-132 0-240 108-240 240 0 132 108 240 240 240 132 0 240-108 240-240 0-132-108-240-240-240z m0 283c-24 0-43-19-43-43 0-24 19-43 43-43 24 0 43 19 43 43 0 24-19 43-43 43z m0-78c-19 0-35 16-35 35 0 19 16 35 35 35 19 0 35-16 35-35 0-19-16-35-35-35z m-120 78c-24 0-44-19-44-43 0-24 20-43 44-43 24 0 43 19 43 43 0 24-19 43-43 43z m0-78c-20 0-35 16-35 35 0 19 15 35 35 35 19 0 34-16 34-35 0-19-15-35-34-35z m240 78c-24 0-43-19-43-43 0-24 19-43 43-43 24 0 44 19 44 43 0 24-20 43-44 43z m0-78c-19 0-34 16-34 35 0 19 15 35 34 35 20 0 35-16 35-35 0-19-15-35-35-35z"/>
<glyph glyph-name="ewd-details-icon-15" unicode="&#111;" d="M43 277l41 0 0-42-41 0z m41 41l41 0 0-41-41 0z m41-41l42 0 0-42-42 0z m-41-42l41 0 0-41-41 0z m110 42l41 0 0-42-41 0z m41 41l42 0 0-41-42 0z m42-41l41 0 0-42-41 0z m-42-42l42 0 0-41-42 0z m110 42l42 0 0-42-42 0z m42 41l41 0 0-41-41 0z m41-41l41 0 0-42-41 0z m-41-42l41 0 0-41-41 0z"/>
<glyph glyph-name="ewd-details-icon-16" unicode="&#112;" d="M256 512c-141 0-256-115-256-256 0-141 115-256 256-256 141 0 256 115 256 256 0 141-115 256-256 256z m0-496c-132 0-240 108-240 240 0 132 108 240 240 240 132 0 240-108 240-240 0-132-108-240-240-240z m-10 138c0-6 4-10 10-10 6 0 10 4 10 10l0 204c0 6-4 10-10 10-6 0-10-4-10-10z m-92 112c-6 0-10-4-10-10 0-6 4-10 10-10l204 0c6 0 10 4 10 10 0 6-4 10-10 10z"/>
<glyph glyph-name="ewd-details-icon-17" unicode="&#113;" d="M469 274l-195 0 0 195-36 0 0-195-195 0 0-36 195 0 0-195 36 0 0 195 195 0z"/>
<glyph glyph-name="ewd-details-icon-18" unicode="&#114;" d="M194 277l-41 0 0-42 82 0 0 42z m83 41l0 41-42 0 0-82 42 0z m41-41l-41 0 0-42 82 0 0 42z m-83-83l0-41 42 0 0 82-42 0z"/>
<glyph glyph-name="ewd-details-icon-19" unicode="&#115;" d="M105 359l302 0 0-41-302 0z m0-82l302 0 0-42-302 0z m0-83l302 0 0-41-302 0z"/>
<glyph glyph-name="ewd-details-icon-20" unicode="&#116;" d="M256 512c-141 0-256-115-256-256 0-141 115-256 256-256 141 0 256 115 256 256 0 141-115 256-256 256z m102-341l-204 0c-6 0-10 5-10 10 0 6 4 10 10 10l204 0c6 0 10-4 10-10 0-5-4-10-10-10z m0 75l-204 0c-6 0-10 4-10 10 0 6 4 10 10 10l204 0c6 0 10-4 10-10 0-6-4-10-10-10z m0 75l-204 0c-6 0-10 4-10 10 0 5 4 10 10 10l204 0c6 0 10-5 10-10 0-6-4-10-10-10z"/>
<glyph glyph-name="ewd-details-icon-21" unicode="&#117;" d="M256 512c-141 0-256-115-256-256 0-141 115-256 256-256 141 0 256 115 256 256 0 141-115 256-256 256z m0-496c-132 0-240 108-240 240 0 132 108 240 240 240 132 0 240-108 240-240 0-132-108-240-240-240z m102 175l-204 0c-6 0-10-4-10-10 0-5 4-10 10-10l204 0c6 0 10 5 10 10 0 6-4 10-10 10z m-204 130l204 0c6 0 10 4 10 10 0 5-4 10-10 10l-204 0c-6 0-10-5-10-10 0-6 4-10 10-10z m204-55l-204 0c-6 0-10-4-10-10 0-6 4-10 10-10l204 0c6 0 10 4 10 10 0 6-4 10-10 10z"/>
<glyph glyph-name="ewd-details-icon-22" unicode="&#118;" d="M438 298l-22 23 0 0-128 127 0 1 0 0 0 0-22 22-192 0 0-430 364 0z m-54 23l-96 0 0 96z m-288-258l0 386 170 0 0-151 150 0 0-235-320 0z m74 286l96 0 0-36-96 0z m0-78l172 0 0-37-172 0z m0-79l172 0 0-36-172 0z"/>
<glyph glyph-name="ewd-details-icon-23" unicode="&#119;" d="M235 389l42 0 0-41-42 0z m42-225l0 164-83 0 0-41 41 0 0-123-41 0 0-41 124 0 0 41z"/>
<glyph glyph-name="ewd-details-icon-24" unicode="&#120;" d="M313 404c0-31-25-56-56-56-31 0-56 25-56 56 0 31 25 56 56 56 31 0 56-25 56-56z m43-287c-10-17-27-29-48-31 3 7 5 14 5 22l0 166c0 31-25 56-56 56-2 0-4 0-5 0-2 0-4 0-5 0l-36 0c-31 0-56-25-56-56 0-3 1-6 1-9 10 18 28 30 49 32-3-7-4-15-4-23l0-166c0-31 25-56 56-56 1 0 3 0 4 0 1 0 3 0 4 0l36 0c31 0 56 25 56 56 0 3-1 6-1 9z"/>
<glyph glyph-name="ewd-details-icon-25" unicode="&#121;" d="M256 512c-141 0-256-115-256-256 0-141 115-256 256-256 141 0 256 115 256 256 0 141-115 256-256 256z m0-496c-132 0-240 108-240 240 0 132 108 240 240 240 132 0 240-108 240-240 0-132-108-240-240-240z m-1 285c-6 0-11-3-11-7l0-149c0-4 5-7 11-7 5 0 10 3 10 7l0 149c0 4-5 7-10 7z m13 61c0-6-6-11-12-11-6 0-12 5-12 11 0 7 6 12 12 12 6 0 12-5 12-12z"/>
<glyph glyph-name="ewd-details-icon-26" unicode="&#122;" d="M256 512c-141 0-256-115-256-256 0-141 115-256 256-256 141 0 256 115 256 256 0 141-115 256-256 256z m9-367c0-4-5-7-10-7-6 0-11 3-11 7l0 149c0 4 5 7 11 7 5 0 10-3 10-7z m-9 206c-6 0-12 5-12 11 0 7 6 12 12 12 6 0 12-5 12-12 0-6-6-11-12-11z"/>
<glyph glyph-name="ewd-details-icon-27" unicode="&#65;" d="M256 482c-131 0-238-98-238-219 0-50 19-97 50-134l-14-99 94 38c32-15 69-24 108-24 131 0 238 98 238 219 0 121-107 219-238 219z m0-410c-34 0-66 8-94 21l-81-33 12 86c-27 32-43 72-43 116 0 105 92 190 206 190 114 0 206-85 206-190 0-105-92-190-206-190z m27 265c0-15-12-27-27-27-15 0-27 12-27 27 0 15 12 27 27 27 15 0 27-12 27-27z m-27-55c-15 0-27-12-27-27l0-80c0-15 12-27 27-27 15 0 27 12 27 27l0 80c0 15-12 27-27 27z"/>
<glyph glyph-name="ewd-details-icon-28" unicode="&#66;" d="M256 453c-115 0-207-85-207-191 0-44 16-84 43-117l-12-86 82 33c28-13 60-21 94-21 115 0 207 86 207 191 0 106-92 191-207 191z m27-278c0-15-12-27-27-27-15 0-27 12-27 27l0 80c0 15 12 27 27 27 15 0 27-12 27-27z m-27 135c-15 0-27 12-27 27 0 15 12 27 27 27 15 0 27-12 27-27 0-15-12-27-27-27z"/>
<glyph glyph-name="ewd-details-icon-29" unicode="&#67;" d="M200 483l-169-2-2-169 283-283 171 171z m-148-173l-2 152 152-2 260-261-149-149z m85 99c0-13-10-23-23-23-12 0-23 10-23 23 0 12 11 23 23 23 13 0 23-11 23-23z m113-96l12 12 141-141-12-12z m108-173l-141 141 12 12 141-141z m-31-34l-141 142 12 11 141-141z"/>
<glyph glyph-name="ewd-details-icon-30" unicode="&#68;" d="M200 481l-169-2-2-170 283-282 171 171z m-108-82c-13 0-23 11-23 23 0 13 10 23 23 23 13 0 23-10 23-23 0-12-10-23-23-23z m242-305l-157 158 13 13 158-158z m35 38l-158 157 14 14 157-158z m-121 193l13 14 158-158-13-13z"/>
</font>
</defs>
</svg>
